Klipy

Diskuze o skupině Sabaton

Re: Klipy

Příspěvekod BoKKeR » 21 srp 2010 19:38

Klip:

Sabaton - Uprising
Z albumu Coat of Arms, Full HD

:screen:

http://i916.photobucket.com/albums/ad8/ ... Sample.png

:info:

Kód: Vybrat vše

Format                           : MPEG-4
Format profile                   : Base Media / Version 2
Codec ID                         : mp42
File size                        : 187 MiB
Duration                         : 5mn 9s
Overall bit rate                 : 5 066 Kbps
Encoded date                     : UTC 2010-08-02 02:21:26
Tagged date                      : UTC 2010-08-02 02:21:26
gsst                             : 0
gstd                             : 309800
gssd                             : B4A7DD0A8HH1280825134186263
gshh                             : v8.cache6.c.youtube.com

Video
ID                               : 1
Format                           : AVC
Format/Info                      : Advanced Video Codec
Format profile                   : High@L4.0
Format settings, CABAC           : No
Format settings, ReFrames        : 1 frame
Codec ID                         : avc1
Codec ID/Info                    : Advanced Video Coding
Duration                         : 5mn 9s
Bit rate mode                    : Variable
Bit rate                         : 4 939 Kbps
Maximum bit rate                 : 11.3 Mbps
Width                            : 1 920 pixels
Height                           : 1 080 pixels
Display aspect ratio             : 16:9
Frame rate mode                  : Constant
Frame rate                       : 25.000 fps
Color space                      : YUV
Chroma subsampling               : 4:2:0
Bit depth                        : 8 bits
Scan type                        : Progressive
Bits/(Pixel*Frame)               : 0.095
Stream size                      : 182 MiB (97%)
Tagged date                      : UTC 2010-08-02 02:21:44

Audio
ID                               : 2
Format                           : AAC
Format/Info                      : Advanced Audio Codec
Format version                   : Version 4
Format profile                   : LC
Format settings, SBR             : No
Codec ID                         : 40
Duration                         : 5mn 9s
Bit rate mode                    : Variable
Bit rate                         : 122 Kbps
Maximum bit rate                 : 167 Kbps
Channel(s)                       : 2 channels
Channel positions                : Front: L R
Sampling rate                    : 44.1 KHz
Stream size                      : 4.51 MiB (2%)
Title                            : (C) 2007 Google Inc. v08.13.2007.
Encoded date                     : UTC 2010-08-02 02:21:38
Tagged date                      : UTC 2010-08-02 02:21:44



Pridán záznam na samoopravu archívu 7%.

:download:

Kód: Vybrat vše

http://download.hellshare.sk/music/sabaton-uprising.rar/1552049




Na sťahovanie odporúčam JDownloader ktorý urobí všetko za vás.

Kód: Vybrat vše
http://download.hellshare.sk/download-clients/jdownloadersetup0-9-579.exe/1547698


:pass:

Upload_By_PredatorX11
BoKKeR
 
Příspěvky: 4
Registrován: 16 črc 2010 14:43

Re: Klipy

Příspěvekod BoKKeR » 21 srp 2010 19:46

Klip:

Sabaton - Primo Victoria
Z albumu Primo Victoria

:screen:

http://i916.photobucket.com/albums/ad8/ ... lePrim.png

:info:

Kód: Vybrat vše

Format                           : MPEG-4
Format profile                   : Base Media / Version 2
Codec ID                         : mp42
File size                        : 63.7 MiB
Duration                         : 4mn 10s
Overall bit rate                 : 2 135 Kbps
Encoded date                     : UTC 2010-08-16 14:20:42
Tagged date                      : UTC 2010-08-16 14:20:42
gsst                             : 0
gstd                             : 250470
gssd                             : BADC20846HH1282295472706028
gshh                             : v6.lscache4.c.youtube.com

Video
ID                               : 1
Format                           : AVC
Format/Info                      : Advanced Video Codec
Format profile                   : High@L3.1
Format settings, CABAC           : Yes
Format settings, ReFrames        : 1 frame
Format settings, GOP             : M=1, N=14
Codec ID                         : avc1
Codec ID/Info                    : Advanced Video Coding
Duration                         : 4mn 10s
Bit rate mode                    : Variable
Bit rate                         : 2 000 Kbps
Maximum bit rate                 : 4 100 Kbps
Width                            : 1 280 pixels
Height                           : 720 pixels
Display aspect ratio             : 16:9
Frame rate mode                  : Variable
Frame rate                       : 30.000 fps
Minimum frame rate               : 29.412 fps
Maximum frame rate               : 55.556 fps
Color space                      : YUV
Chroma subsampling               : 4:2:0
Bit depth                        : 8 bits
Scan type                        : Progressive
Bits/(Pixel*Frame)               : 0.072
Stream size                      : 59.7 MiB (94%)
Tagged date                      : UTC 2010-08-16 14:21:03

Audio
ID                               : 2
Format                           : AAC
Format/Info                      : Advanced Audio Codec
Format version                   : Version 4
Format profile                   : LC
Format settings, SBR             : No
Codec ID                         : 40
Duration                         : 4mn 10s
Bit rate mode                    : Variable
Bit rate                         : 128 Kbps
Maximum bit rate                 : 167 Kbps
Channel(s)                       : 2 channels
Channel positions                : Front: L R
Sampling rate                    : 44.1 KHz
Stream size                      : 3.82 MiB (6%)
Title                            : (C) 2007 Google Inc. v08.13.2007.
Encoded date                     : UTC 2010-08-16 14:20:53
Tagged date                      : UTC 2010-08-16 14:21:03



Pridán záznam na samoopravu archívu 7%.

:download:

Kód: Vybrat vše

http://download.hellshare.sk/music/sabaton-primo-victoria.rar/1551994





Na sťahovanie odporúčam JDownloader ktorý urobí všetko za vás.

Kód: Vybrat vše
http://download.hellshare.sk/download-clients/jdownloadersetup0-9-579.exe/1547698


:pass:

Upload_By_PredatorX11
BoKKeR
 
Příspěvky: 4
Registrován: 16 črc 2010 14:43

Re: Klipy

Příspěvekod BoKKeR » 21 srp 2010 19:52

Klip:
Sabaton - Metal Crüe
Z albumu Attero Dominatus

:screen:

http://i916.photobucket.com/albums/ad8/ ... Sample.png

:info:

Kód: Vybrat vše

Format                           : MPEG-4
Format profile                   : Base Media / Version 2
Codec ID                         : mp42
File size                        : 15.7 MiB
Duration                         : 3mn 42s
Overall bit rate                 : 592 Kbps
Encoded date                     : UTC 2008-05-11 12:02:47
Tagged date                      : UTC 2008-05-11 12:02:47
gsst                             : 0
gstd                             : 223120
gssd                             : BADC20704MH1282300575310490
gshh                             : v12.lscache1.c.youtube.com

Video
ID                               : 2
Format                           : AVC
Format/Info                      : Advanced Video Codec
Format profile                   : Baseline@L2.1
Format settings, CABAC           : No
Format settings, ReFrames        : 1 frame
Codec ID                         : avc1
Codec ID/Info                    : Advanced Video Coding
Duration                         : 3mn 42s
Bit rate mode                    : Variable
Bit rate                         : 464 Kbps
Maximum bit rate                 : 2 267 Kbps
Width                            : 480 pixels
Height                           : 360 pixels
Display aspect ratio             : 4:3
Frame rate mode                  : Constant
Frame rate                       : 25.000 fps
Color space                      : YUV
Chroma subsampling               : 4:2:0
Bit depth                        : 8 bits
Scan type                        : Progressive
Bits/(Pixel*Frame)               : 0.107
Stream size                      : 12.3 MiB (78%)
Title                            : (C) 2007 Google Inc. v06.24.2007.
Encoded date                     : UTC 2008-05-11 12:02:47
Tagged date                      : UTC 2008-05-11 12:02:48

Audio
ID                               : 1
Format                           : AAC
Format/Info                      : Advanced Audio Codec
Format version                   : Version 4
Format profile                   : LC
Format settings, SBR             : No
Codec ID                         : 40
Duration                         : 3mn 42s
Bit rate mode                    : Variable
Bit rate                         : 126 Kbps
Maximum bit rate                 : 153 Kbps
Channel(s)                       : 2 channels
Channel positions                : Front: L R
Sampling rate                    : 44.1 KHz
Stream size                      : 3.34 MiB (21%)
Title                            : (C) 2007 Google Inc. v06.24.2007.
Encoded date                     : UTC 2008-05-11 12:02:47
Tagged date                      : UTC 2008-05-11 12:02:48



Pridán záznam na samoopravu archívu 7%.

:download:

Kód: Vybrat vše

http://download.hellshare.sk/music/sabaton-metal-crue.rar/1551958




Na sťahovanie odporúčam JDownloader ktorý urobí všetko za vás.

Kód: Vybrat vše
http://download.hellshare.sk/download-clients/jdownloadersetup0-9-579.exe/1547698


:pass:

Upload_By_PredatorX11
BoKKeR
 
Příspěvky: 4
Registrován: 16 črc 2010 14:43

Re: Klipy

Příspěvekod BoKKeR » 21 srp 2010 19:57

Sabaton - 40:1
Z albumu Primo Victoria

:screen:

Obrázek

:info:

Kód: Vybrat vše

Format                           : MPEG-4
Format profile                   : Base Media / Version 2
Codec ID                         : mp42
File size                        : 19.8 MiB
Duration                         : 4mn 23s
Overall bit rate                 : 629 Kbps
Encoded date                     : UTC 2009-02-22 20:24:23
Tagged date                      : UTC 2009-02-22 20:24:23
gsst                             : 0
gstd                             : 264311
gssd                             : BADC20743HH1282300142559585
gshh                             : v19.lscache6.c.youtube.com

Video
ID                               : 2
Format                           : AVC
Format/Info                      : Advanced Video Codec
Format profile                   : Baseline@L2.1
Format settings, CABAC           : No
Format settings, ReFrames        : 1 frame
Codec ID                         : avc1
Codec ID/Info                    : Advanced Video Coding
Duration                         : 4mn 23s
Bit rate mode                    : Variable
Bit rate                         : 502 Kbps
Maximum bit rate                 : 1 194 Kbps
Width                            : 480 pixels
Height                           : 352 pixels
Display aspect ratio             : 4:3
Frame rate mode                  : Constant
Frame rate                       : 25.000 fps
Color space                      : YUV
Chroma subsampling               : 4:2:0
Bit depth                        : 8 bits
Scan type                        : Progressive
Bits/(Pixel*Frame)               : 0.119
Stream size                      : 15.8 MiB (80%)
Title                            : (C) 2007 Google Inc. v08.13.2007.
Encoded date                     : UTC 2009-02-22 20:24:23
Tagged date                      : UTC 2009-02-22 20:24:24

Audio
ID                               : 1
Format                           : AAC
Format/Info                      : Advanced Audio Codec
Format version                   : Version 4
Format profile                   : LC
Format settings, SBR             : No
Codec ID                         : 40
Duration                         : 4mn 23s
Bit rate mode                    : Variable
Bit rate                         : 125 Kbps
Maximum bit rate                 : 144 Kbps
Channel(s)                       : 2 channels
Channel positions                : Front: L R
Sampling rate                    : 44.1 KHz
Stream size                      : 3.92 MiB (20%)
Title                            : (C) 2007 Google Inc. v08.13.2007.
Encoded date                     : UTC 2009-02-22 20:24:23
Tagged date                      : UTC 2009-02-22 20:24:24



Pridán záznam na samoopravu archívu 7%.

:download:

Kód: Vybrat vše

http://download.hellshare.sk/music/sabaton-40-1.rar/1551976




Na sťahovanie odporúčam JDownloader ktorý urobí všetko za vás.

Kód: Vybrat vše
http://download.hellshare.sk/download-clients/jdownloadersetup0-9-579.exe/1547698


:pass:

Upload_By_PredatorX11
BoKKeR
 
Příspěvky: 4
Registrován: 16 črc 2010 14:43

Re: Klipy

Příspěvekod gumir » 24 dub 2011 12:16

Nevíte někdo, kdy bude vydaný klip Screaming Eagles, na který byl už docela dávno zveřejněný trailer na youtube Sabatonu?
gumir
 
Příspěvky: 5
Registrován: 11 zář 2008 15:16

Předchozí

Zpět na O skupině

Kdo je online

Uživatelé procházející toto fórum: Žádní registrovaní uživatelé a 1 návštěvník

cron